请选择 进入手机版 | 继续访问电脑版

晴川综合网-西昌地区开办最早的个人网站之一

搜索
查看: 15326|回复: 10

领略纯正高音质重播的魅力[安桥试音碟2][ape/百度云]

  [复制链接]
发表于 2014-2-18 09:55:15 | 显示全部楼层 |阅读模式
Exact Audio Copy V0.99 prebeta 5 from 4. May 2009
EAC 抓取日志文件从18. 十月 2010, 20:30
百事高音乐 / 安桥试音碟2
使用驱动器  :PIONEER DVD-RW  DVR-116   Adapter: 0  ID: 0
读取模式     : 保护
使用精确流   : 是
废除音频缓冲 : 否
使用 C2 指针 : 否
读取偏移校正                   : 0
读取 Lead-In 和 Lead-Out       : 否
用静音填充抓取中丢失偏移的采样 : 是
去除首尾静音块                 : 否
在 CRC 计算中使用了空样本      : 否
已用接口                       : Win NT 及 2000 本地 Win32 接口
所用输出格式 : Monkey's Audio Lossless Encoder v3.97 DLL
样本格式     : Fast Lossless Compression
试听曲目:03 山茶花 /一水隔天涯

被抓轨 CD 的 TOC
     音轨 |   开始   |   长度   | 起始扇区 | 结尾扇区
    --------------------------------------------------
       1  |  0:00.00 |  4:23.69 |       0  |   19793  
       2  |  4:23.69 |  3:43.71 |   19794  |   36589  
       3  |  8:07.65 |  3:58.20 |   36590  |   54459  
       4  | 12:06.10 |  4:50.40 |   54460  |   76249  
       5  | 16:56.50 |  4:41.50 |   76250  |   97374  
       6  | 21:38.25 |  2:57.73 |   97375  |  110722  
       7  | 24:36.23 |  7:36.33 |  110723  |  144955  
       8  | 32:12.56 |  4:17.27 |  144956  |  164257  
       9  | 36:30.08 |  2:44.56 |  164258  |  176613  
      10  | 39:14.64 |  4:29.19 |  176614  |  196807  
      11  | 43:44.08 |  5:25.58 |  196808  |  221240  
      12  | 49:09.66 |  4:11.31 |  221241  |  240096  
      13  | 53:21.22 |  4:39.30 |  240097  |  261051  
      14  | 58:00.52 |  3:55.44 |  261052  |  278720  
      15  | 61:56.21 |  4:57.11 |  278721  |  301006  

范围状态及错误
已选择范围
     文件名 D:\百事高音乐 - 安桥试音碟2.ape
     
     峰值电平 100.0 %
     范围质量 98.8 %
     复制 CRC 039F323D
     复制结束
没有错误发生
状态报告结尾

0.jpg 1.jpg



《安桥 安桥试音碟2》2006年是ONKYO安桥成立60周年的日子,

在60年的历程中安桥研制出许多不同类型的影音产品,在影音市场中数一数二,

成就非凡。雨林与安桥共同录制的这张CD内的精选曲目,均以ONKYO最新的数码

放大器A-975役及CD播放机DX-7555和Liverpool利物浦迷你音响组合来作参考挑

选的,希望大家从中体验各种乐器和人声的特质,领略纯正高音质重播的魅力。

01 青藏高原 /戏竹3

02 茉莉花 /青燕子演唱组5周年特辑

03 山茶花 /一水隔天涯

04 YOU RAISE ME UP /都市夜归人

05 阿里郎 /都市夜归人

06 爸爸的草鞋 /闲情雅乐

07 白毛女 /青燕子交响诗

08 哎哟妈妈 /情迷东南亚

09 谍中谍 /金色铜管五重奏

10 流星下的愿 /不老传说

11 醉花荫 /醉花荫

12 南海姑娘 /醉花荫

13 出航 /青燕子交响诗

14 开花调 /岚之语

15 哭砂 /花言巧语



下载地址:

游客,如果您要查看本帖隐藏内容请回复



回复

使用道具 举报

发表于 2014-7-29 07:23:49 来自手机 | 显示全部楼层
好听了太好听了太好听了太好听了
回复 支持 反对

使用道具 举报

发表于 2014-8-4 21:37:50 来自手机 | 显示全部楼层
好听了太好听了太好听了太好听了!!!!!
回复 支持 反对

使用道具 举报

发表于 2016-12-25 01:32:06 | 显示全部楼层
谢谢分享,谢谢分享
回复 支持 反对

使用道具 举报

发表于 2019-7-25 10:58:59 | 显示全部楼层
非常好的音乐 太好听了 谢谢
回复 支持 反对

使用道具 举报

发表于 2019-11-27 10:19:33 | 显示全部楼层
发个合集就更好了,谢谢
回复 支持 反对

使用道具 举报

发表于 2020-2-9 09:24:42 | 显示全部楼层
太好了!感谢!!
回复 支持 反对

使用道具 举报

发表于 2020-4-23 15:51:25 | 显示全部楼层
音质不错,声音纯正,试听一下
回复 支持 反对

使用道具 举报

发表于 2020-11-7 23:54:22 | 显示全部楼层
领略纯正高音质重播的魅力[安桥试音碟2][ape/百度云] [修改]
回复 支持 反对

使用道具 举报

您需要登录后才可以回帖 登录 | 立即注册

本版积分规则

QQ|小黑屋|手机版|Archiver|晴川综合网(晴川论坛) 蜀ICP备12004085号-1

GMT+8, 2021-4-13 14:59 , Processed in 0.156001 second(s), 18 queries .

Powered by Discuz! X3.4

© 2001-2013 Comsenz Inc.

快速回复 返回顶部 返回列表